Показать сообщение отдельно
Старый 04.12.2009, 00:36   #3
кинозал.тв
Местный
Медаль пользователю форума.
ЗОЛОТОМедаль автору.
ЗОЛОТО
Форумчанин
 
Аватар для кинозал.тв
 
Регистрация: 10.01.2008
Сообщения: 1,187
Репутация: 159
Создание инфо-файла для всех форматов файлов с помощью KMPlayer

Скачать программу KMPlayer на русском языке
Скачать видео-урок по созданию инфо-файла с помощью KMPlayer
Смотреть флеш-урок по созданию инфо-файла с помощью KMPlayer

1. Запускаем программу и нажимаем кнопочку "Открыть файл(ы)...":



2. В появившемся окне находим нужный видео-файл, выделяем его и нажимаем "Открыть":



3. После открытия нажимаем в окне программы правую кнопку мышки и выбираем в самом низу "Информация о записи...:



4. В открывшемся окне видим инфо-файл:

C:\Users\Home\Desktop\Новая папка\Кинозал.ТВ.avi
General
Complete name : C:\Users\Home\Desktop\Новая папка\Кинозал.ТВ.avi
Format : AVI
Format/Info : Audio Video Interleave
File size : 14.6 MiB
Duration : 1mn 5s
Overall bit rate : 1 860 Kbps
Writing application : Nandub v1.0rc2
Writing library : Nandub build 1853/release
Video #0
ID : 0
Format : MPEG-4 Visual
Format profile : Advanced [email protected]
Format settings, BVOP : 2
Format settings, QPel : Yes
Format settings, GMC : No warppoints
Format settings, Matrix : Default (H.263)
Muxing mode : Packed bitstream
Codec ID : XVID
Codec ID/Hint : XviD
Duration : 1mn 5s
Bit rate : 1 591 Kbps
Width : 720 pixels
Height : 336 pixels
Display aspect ratio : 2.143
Frame rate : 30.000 fps
Color space : YUV
Chroma subsampling : 4:2:0
Bit depth : 8 bits
Scan type : Progressive
Compression mode : Lossy
Bits/(Pixel*Frame) : 0.219
Stream size : 12.5 MiB (86%)
Writing library : XviD 1.2.1 (UTC 2008-12-04)
Audio #1
ID : 1
Format : AC-3
Format/Info : Audio Coding 3
Mode extension : CM (complete main)
Format settings, Endianness : Big
Codec ID : 2000
Duration : 1mn 5s
Bit rate mode : Constant
Bit rate : 256 Kbps
Channel(s) : 2 channels
Channel positions : Front: L R
Sampling rate : 48.0 KHz
Bit depth : 16 bits
Compression mode : Lossy
Delay relative to video : 19ms
Stream size : 2.01 MiB (14%)
Alignment : Split accross interleaves
Interleave, duration : 34 ms (1.01 video frame)
Interleave, preload duration : 500 ms
* Где синим я выделил необходимые нам данные, а именно:

XviD - видео-кодек
1591 - видео-битрейт
720 и 336 - соответственно ширина и высота экрана (размер экрана)
AC-3 - аудио-кодек
2 - количество каналов аудио
256- аудио-битрейт
1mn 5s - продолжительность фильма ("00:01:05")

Последний раз редактировалось JuliaX5, 07.07.2015 в 20:08.